优酷视频:标清、高清、超清、1080p视频详细参数

视频转码 楚盟 313℃ 0评论

优酷标清视频参数:

[root@vultr home]# ffmpeg  -i  2.mp4
ffmpeg version N-79641-g438ed97 Copyright (c) 2000-2016 the FFmpeg developers
  built with gcc 4.4.7 (GCC) 20120313 (Red Hat 4.4.7-16)
  configuration: --prefix=/usr
  libavutil      55. 22.101 / 55. 22.101
  libavcodec     57. 38.100 / 57. 38.100
  libavformat    57. 34.103 / 57. 34.103
  libavdevice    57.  0.101 / 57.  0.101
  libavfilter     6. 44.100 /  6. 44.100
  libswscale      4.  1.100 /  4.  1.100
  libswresample   2.  0.101 /  2.  0.101
Input #0, mov,mp4,m4a,3gp,3g2,mj2, from '2.mp4':
  Metadata:
    major_brand     : isom
    minor_version   : 1
    compatible_brands: isomavc1
    creation_time   : 2016-04-29 15:58:18
  Duration: 00:03:36.46, start: 0.000000, bitrate: 300 kb/s
    Stream #0:0(und): Video: h264 (Constrained Baseline) (avc1 / 0x31637661), yuv420p, 640x360 [SAR 1:1 DAR 16:9], 267 kb/s, 15 fps, 15 tbr, 15k tbn (default)
    Metadata:
      creation_time   : 2016-04-29 15:58:18
      handler_name    : GPAC ISO Video Handler
    Stream #0:1(und): Audio: aac (HE-AACv2) (mp4a / 0x6134706D), 44100 Hz, stereo, fltp, 31 kb/s (default)
    Metadata:
      creation_time   : 2016-04-29 15:58:18
      handler_name    : GPAC ISO Audio Handler

优酷高清视频参数:

[root@vultr home]# ffmpeg  -i  1.flv
ffmpeg version N-79641-g438ed97 Copyright (c) 2000-2016 the FFmpeg developers
  built with gcc 4.4.7 (GCC) 20120313 (Red Hat 4.4.7-16)
  configuration: --prefix=/usr
  libavutil      55. 22.101 / 55. 22.101
  libavcodec     57. 38.100 / 57. 38.100
  libavformat    57. 34.103 / 57. 34.103
  libavdevice    57.  0.101 / 57.  0.101
  libavfilter     6. 44.100 /  6. 44.100
  libswscale      4.  1.100 /  4.  1.100
  libswresample   2.  0.101 /  2.  0.101
[flv @ 0xb0611a0] video stream discovered after head already parsed
[flv @ 0xb0611a0] audio stream discovered after head already parsed
Input #0, flv, from '1.flv':
  Metadata:
    metadatacreator : modified by youku.com in 20111202
    hasKeyframes    : true
    hasVideo        : true
    hasAudio        : true
    hasMetadata     : true
  Duration: 00:03:36.41, start: 0.000000, bitrate: 417 kb/s
    Stream #0:0: Video: h264 (High), yuv420p, 640x360 [SAR 1:1 DAR 16:9], 15.17 fps, 15 tbr, 1k tbn
    Stream #0:1: Audio: aac (HE-AAC), 44100 Hz, stereo, fltp
At least one output file must be specified

优酷超清视频参数:

[root@vultr home]# ffmpeg  -i  3.flv
ffmpeg version N-79641-g438ed97 Copyright (c) 2000-2016 the FFmpeg developers
  built with gcc 4.4.7 (GCC) 20120313 (Red Hat 4.4.7-16)
  configuration: --prefix=/usr
  libavutil      55. 22.101 / 55. 22.101
  libavcodec     57. 38.100 / 57. 38.100
  libavformat    57. 34.103 / 57. 34.103
  libavdevice    57.  0.101 / 57.  0.101
  libavfilter     6. 44.100 /  6. 44.100
  libswscale      4.  1.100 /  4.  1.100
  libswresample   2.  0.101 /  2.  0.101
[flv @ 0xb4521a0] video stream discovered after head already parsed
[flv @ 0xb4521a0] audio stream discovered after head already parsed
Input #0, flv, from '3.flv':
  Metadata:
    metadatacreator : modified by youku.com in 20111202
    hasKeyframes    : true
    hasVideo        : true
    hasAudio        : true
    hasMetadata     : true
  Duration: 00:01:35.64, start: 0.000000, bitrate: 1590 kb/s
    Stream #0:0: Video: h264 (High), yuv420p, 1280x720 [SAR 1:1 DAR 16:9], 25 fps, 25 tbr, 1k tbn
    Stream #0:1: Audio: aac (LC), 44100 Hz, stereo, fltp

转载请注明:楚盟博客 » 优酷视频:标清、高清、超清、1080p视频详细参数

发表我的评论
取消评论
表情

Hi,您需要填写昵称和邮箱!

  • 昵称 (必填)
  • 邮箱 (必填)
  • 网址
(1)个小伙伴在吐槽
  1. 博文值得拜读。受益了!
    增达信购2016-05-13 17:21 回复